Az elnök különgépe (Air Force One)1997,BDRIP.hun.xvid - Akció - Filmek - New Torrents
Online Filmek, online film letöltés, ingyen filmek , webes filmnézés , online letöltés
Oszd meg a filmet Facebook-on!
Az elnök különgépe (Air Force One)1997,BDRIP.hun.xvid
Leírás:


Code
http://refile.net/f/?jFz
http://refile.net/f/?jFA


vagy:

Code
http://grupload.com/0efei4x1yj5i
http://grupload.com/ezqx9cny61sj


jelszó:nono

Az elnök különgépe
(Air Force One)
színes, magyarul beszélő, amerikai akciófilm, 119 perc, 1997

Tartalom:Terroristák eltérítenek egy repülőt. A túszul ejtett utasokért cserébe Radek tábornok szabadon bocsátását követelik. Jó megoldás nincs: ha ugyanis nem engedik szabadon Radeket, a terroristák módszeresen ki fogják végezni az utasokat, amennyiben teljesítik követelést, az további százezrek biztos halálát jelenti. Egyetlen ember kezében van a döntés: vagy feláldozza lányát és feleségét a világ megmentése érdekében, vagy emberek százezreit küldi a halálba. Ez a férfi nem más, mint az Amerikai Egyesült államok elnöke. A gép pedig az Air Force One, az elnök különgépe.

Film adatlap:
rendező: Wolfgang Petersen
író: Andrew W. Marlowe
zeneszerző: Jerry Goldsmith
operatőr: Michael Ballhaus
jelmeztervező: Erica Edell Phillips
producer: Armyan Bernstein, Gail Katz, Wolfgang Petersen, Jonathan Shestack
executive producer: Marc Abraham, Thomas A. Bliss, David V. Lester
látványtervező: William Sandell
vágó: Richard Francis-Bruce

szereplő(k):
Harrison Ford (James Marshall elnök)
Gary Oldman (Egor Korshunov)
Glenn Close (Kathryn Bennett)
Wendy Crewson (Grace Marshall)
Liesel Matthews (Alice Marshall)
Paul Guilfoyle (Lloyd Shepherd)
Xander Berkeley (Gibbs)
Elya Baskin (Andrei Kolchak)
William H. Macy (Caldwell)
Jürgen Prochnow (Ivan Radek)
Dean Stockwell (Walter Dean)
Díjak és jelölések:
Oscar-díj (1998) - Legjobb hang jelölés
Oscar-díj (1998) - Legjobb vágás jelölés: Richard Francis-Bruce

Technikai adatok:

Video
ID : 0
Format : MPEG-4 Visual
Format profile : Advanced Simple@L5
Format settings, BVOP : 2
Format settings, QPel : Yes
Format settings, GMC : No warppoints
Format settings, Matrix : Default (MPEG)
Codec ID : XVID
Codec ID/Hint : XviD
Duration : 2h 4mn
Bit rate : 1 215 Kbps
Width : 720 pixels
Height : 304 pixels
Display aspect ratio : 2.35:1
Frame rate : 23.976 fps
Color space : YUV
Chroma subsampling : 4:2:0
Bit depth : 8 bits
Scan type : Progressive
Compression mode : Lossy
Bits/(Pixel*Frame) : 0.232
Stream size : 1.06 GiB (73%)
Writing library : XviD 63

Audio
ID : 1
Format : AC-3
Format/Info : Audio Coding 3
Mode extension : CM (complete main)
Codec ID : 2000
Duration : 2h 4mn
Bit rate mode : Constant
Bit rate : 448 Kbps
Channel(s) : 6 channels
Channel positions : Front: L C R, Side: L R, LFE
Sampling rate : 48.0 KHz
Bit depth : 16 bits
Compression mode : Lossy
Stream size : 399 MiB (27%)
Alignment : Split accross interleaves
Interleave, duration : 42 ms (1.00 video frame)
Interleave, preload duration : 500 ms
Értékelés:
Kategoria:Akció
Feltöltve:2012.Feb.16
Feltöltötte:zsuzscsinyu
Nézetség:313
Tag-ek:refile, akciófilm, grupload
Helyezés:0.0/0
A hozzászólások olvasásához, írásához be kell jelentkezned!
[ Regisztráció | Belépés ]