A skarlát betű (The Scarlet Letter)1995,DVDRIP.hun.xvid - Dráma - Filmek - New Torrents
Online Filmek, online film letöltés, ingyen filmek , webes filmnézés , online letöltés
Oszd meg a filmet Facebook-on!
A skarlát betű (The Scarlet Letter)1995,DVDRIP.hun.xvid
Leírás:

A skarlát betű 
(The Scarlet Letter) 
színes, magyarul beszélő, amerikai filmdráma, 135 perc, 1995 

Tartalom:Hester Prynne a konvenciókra fittyet hányó gyönyörű asszony és Dinsdale tiszteletes tiltott és titkos szerelme az indiánháborúk korának puritán új-Angliájában. A ruhára hímzett, a hitvesi hűtlenséget jelképező skarlát színű "A" betű, melyet Hester dacos büszkeséggel visel, az erkölcscsőszök világa ellen való örök lázadás szimbólumává nemesedett. 

Film adatlap: 
rendező: Roland Joffé 
író: Nathaniel Hawthorne 
forgatókönyvíró: Douglas Day Stewart 
zeneszerző: John Barry 
operatőr: Alex Thomson 
vágó: Thom Noble 

szereplő(k): 
Demi Moore (Hester Prynne) 
Gary Oldman (Arthur Dimmesdale) 
Robert Duvall (Dr. Roger Prynne) 
Edward Hardwicke (John Bellingham) 
Robert Prosky (Horace Stonehall) 
Roy Dotrice (Thomas Cheever) 
Joan Plowright (Harriet Hibbons) 

Technikai adatok: 

Video 
Code
ID : 0 
Format : MPEG-4 Visual 
Format profile : Advanced Simple@L5 
Format settings, BVOP : 1 
Format settings, QPel : No 
Format settings, GMC : No warppoints 
Format settings, Matrix : Custom 
Codec ID : XVID 
Codec ID/Hint : XviD 
Duration : 2h 9mn 
Bit rate : 639 Kbps 
Width : 608 pixels 
Height : 256 pixels 
Display aspect ratio : 2.40:1 
Frame rate : 25.000 fps 
Chroma subsampling : 4:2:0 
Bit depth : 8 bits 
Stream size : 592 MiB (85%) 

Audio 
ID : 1 
Format : MPEG Audio 
Format version : Version 1 
Format profile : Layer 3 
Mode : Joint stereo 
Codec ID : 55 
Codec ID/Hint : MP3 
Duration : 2h 9mn 
Bit rate mode : Variable 
Bit rate : 103 Kbps 
Nominal bit rate : 128 Kbps 
Channel(s) : 2 channels 
Sampling rate : 48.0 KHz 
Compression mode : Lossy 
Stream size : 95.6 MiB (14%) 
Alignment : Aligned on interleaves 
Interleave, duration : 24 ms (0.60 video frame) 
Interleave, preload duration : 528 ms 
Writing library : LAME3.97  
Language : ma


Code
http://10upload.com/ksbfu2tikloa/A_skarl%C3%A1t_bet%C5%B1.avi.html


vagy: 

Code
http://filevelocity.com/ap9ucjlg3nvs/A_skarl%C3%A1t_bet%C5%B1.avi
Értékelés:
Kategoria:Dráma
Feltöltve:2012.Feb.08
Feltöltötte:Amadeusz
Nézetség:478
Tag-ek:filevelocity, filmdráma, 10upload
Helyezés:0.0/0
A hozzászólások olvasásához, írásához be kell jelentkezned!
[ Regisztráció | Belépés ]