Anonymous(2011)BRRip.XviD.HunSub - Dráma - Filmek - New Torrents
Online Filmek, online film letöltés, ingyen filmek , webes filmnézés , online letöltés
Oszd meg a filmet Facebook-on!
Anonymous(2011)BRRip.XviD.HunSub
Leírás:
Anonymous(2011)BRRip.XviD.HunSub

Színes, feliratos (gépi fordítás), angol/német thriller/dráma 129 perc
[/size]



Anonymous[2011]BRRip.XviD-ETRG

A rendező megkockáztatja kijelenteni az Anonymous-ban az elmúlt száz évben szárnyaló elméletet mely szerint Shakespeare darabjait tulajdonképpen Edward Vere Oxfordi báró írta. A film inkább egy történelmi thriller ami megismerteti velünk Erzsébet királynő hatalmon maradásáért vívott harcát a Cecil dinasztiával, melynek következtében a királynő lehetetlen helyzetbe kerül.







IMDB
Code

http://www.imdb.com/title/tt1521197/


TRAILER


Rendezte:
Roland Emmerich

írta:
John Orloff

Szereplők:

Rhys Ifans ... Earl of Oxford
Vanessa Redgrave ... Queen Elizabeth I
Sebastian Armesto... Ben Jonson
Rafe Spall ... William Shakespeare
David Thewlis ... William Cecil
Edward Hogg ... Robert Cecil
Xavier Samuel ... Earl of Southampton
Sam Reid ... Earl of Essex
Jamie Campbell ... Young Earl of Oxford
Joely Richardson ... Young Queen Elizabeth I
Paolo De Vita ... Francesco
Trystan Gravelle ... Christopher Marlowe
Robert Emms ... Thomas Dekker
Tony Way ... Thomas Nashe
Julian Bleach ... Captain Richard Pole

Code
AUDIO-VIDEO</b> <br><br> Format : AVI <br> Format/Info : Audio Video Interleave <br> File size : 698 MiB <br> Duration : 2h 9mn <br> Overall bit rate : 756 Kbps <br> Writing library : VirtualDub build 32842/release <br> Copyright : SaM <br><br> Video <br> Format : MPEG-4 Visual <br> Format profile : Streaming Video@L1 <br> Format settings, BVOP : Yes <br> Format settings, QPel : No <br> Format settings, GMC : No warppoints <br> Format settings, Matrix : Default <br> Muxing mode : Packed bitstream <br> Codec ID : XVID <br> Codec ID/Hint : XviD <br> Duration : 2h 9mn <br> Bit rate : 635 Kbps <br> Width : 608 pixels <br> Height : 256 pixels <br> Display aspect ratio : 2.35 <br> Frame rate : 23.976 fps <br> Resolution : 24 bits <br> Colorimetry : 4:2:0 <br> Scan type : Progressive <br> Bits/(Pixel*Frame) : 0.170 <br> Stream size : 586 MiB (84%) <br> Writing library : XviD 64 <br><br> Audio <br> Format : MPEG Audio <br> Format version : Version 1 <br> Format profile : Layer 3 <br> Codec ID : 55 <br> Codec ID/Hint : MP3 <br> Duration : 2h 9mn <br> Bit rate mode : Constant <br> Bit rate : 112 Kbps <br> Minimum bit rate : 112 Kbps <br> Channel(s) : 2 channels <br> Sampling rate : 48.0 KHz <br> Resolution : 16 bits <br> Stream size : 103 MiB (15%) <br> Alignment : Split accross interleaves <br> Interleave, duration : 42 ms (1.00 video frame) <br> Interleave, preload duration : 500 ms <br> Writing library : LAME3.98r <br> Encoding settings : CBR


Párhuzamosan is szedheted.

FILEVELOCITY
rarpass:kaliber762
Code

http://filevelocity.com/ry3oia3rp8lj
http://filevelocity.com/ojs6zxduyyqb

EXTABIT
rarpass:kaliber762
Code

http://extabit.com/file/28xi6nl2brfij/
http://extabit.com/file/28xi6nl2brfiz/

UPLOADED.TO
rarpass:kaliber762
Code

http://ul.to/vp9mwpq1
http://ul.to/xztkidzg
Értékelés:
Kategoria:Dráma
Feltöltve:2012.Feb.14
Feltöltötte:Amadeusz
Nézetség:168
Tag-ek:698MB, dráma, Extabit, uploaded.to, Thriller
Helyezés:0.0/0
A hozzászólások olvasásához, írásához be kell jelentkezned!
[ Regisztráció | Belépés ]