A szerelem börtönében (Morning Glory) 1993 VHSRIP hun xvid - Kaland - Filmek - New Torrents
Online Filmek, online film letöltés, ingyen filmek , webes filmnézés , online letöltés
Oszd meg a filmet Facebook-on!
A szerelem börtönében (Morning Glory) 1993 VHSRIP hun xvid
Leírás:

A szerelem börtönében 
(Morning Glory) 
színes, magyarul beszélő, amerikai romantikus kalandfilm, 96 perc, 1993 

Tartalom:Egy volt fegyenc és egy várandós özvegyasszony történetét dolgozza fel a film, amely LaVyrle Spencer 1989-ben megjelent regényéből készült. Elly Dinsmore (Deborah Raffin), miután férje meghal, gyermekeivel egyedül marad georgiai farmján. Egy újsághirdetést ad fel, melyben segítőtársat keres. Hamarosan Will Parker (Christopher Reeve) jelenik meg az asszony házánál, aki kiderült, hogy börtönben ült egy prostituált meggyilkolása miatt. A helyi seriffnek rögtön gyanús lesz az idegen. 

Film adatlap: 
rendező: Steven Hilliard Stern 
író: LaVyrle Spencer 
forgatókönyvíró: Charles Jarrott, Deborah Raffin 
operatőr: Laszlo George 
díszlettervező: Barry Kemp 
jelmeztervező: Maureen Hiscox 
zene: Jonathan Elias 
producer: Michael Viner 
executive producer: Jerry Leider 
vágó: Richard Benwick 

szereplő(k): 
Christopher Reeve (Will Parker) 
Deborah Raffin (Elly Dinsmore) 
Lloyd Bochner (Bob Collins) 
Nina Foch (Miss Beasly) 
Helen Shaver (Lula Peaks) 
J.T. Walsh (Reese Goodloe seriff) 
Joel Palmer (Donald Wade) 

Technikai adatok: 

Code
Video 
ID : 0 
Format : MPEG-4 Visual 
Format profile : Advanced Simple@L5 
Format settings, BVOP : Yes 
Format settings, QPel : No 
Format settings, GMC : No warppoints 
Format settings, Matrix : Default (H.263) 
Muxing mode : Packed bitstream 
Codec ID : XVID 
Codec ID/Hint : XviD 
Duration : 1h 35mn 
Bit rate : 1 190 Kbps 
Width : 768 pixels 
Height : 568 pixels 
Display aspect ratio : 4:3 
Frame rate : 25.000 fps 
Color space : YUV 
Chroma subsampling : 4:2:0 
Bit depth : 8 bits 
Scan type : Progressive 
Bits/(Pixel*Frame) : 0.109 
Stream size : 815 MiB (87%) 
Writing library : XviD 58 

Audio 
ID : 1 
Format : MPEG Audio 
Format version : Version 1 
Format profile : Layer 3 
Mode : Joint stereo 
Mode extension : MS Stereo 
Codec ID : 55 
Codec ID/Hint : MP3 
Duration : 1h 35mn 
Bit rate mode : Constant 
Bit rate : 160 Kbps 
Channel(s) : 2 channels 
Sampling rate : 48.0 KHz 
Stream size : 110 MiB (12%) 
Alignment : Aligned on interleaves 
Interleave, duration : 24 ms (0.60 video frame) 
Interleave, preload duration : 504 ms 
Writing library : LAME3.97


Code
http://filevelocity.com/58eq91hlywd3/A_szerelem_b%C3%B6rt%C3%B6n%C3%A9ben_vhsrip.avi
Értékelés:
Kategoria:Kaland
Feltöltve:2012.Feb.08
Feltöltötte:Amadeusz
Nézetség:300
Kommentek:1
Tag-ek:filevelocity, romantikus kalandfilm
Helyezés:0.0/0
0   Spam
1 Sanyipapa   (2013.Okt.28 21:37:18)
Bazd meg halott nemlétezik a link...

A hozzászólások olvasásához, írásához be kell jelentkezned!
[ Regisztráció | Belépés ]