Lovagregény (A Knight's Tale) 2001 - Kaland - Filmek - New Torrents
Online Filmek, online film letöltés, ingyen filmek , webes filmnézés , online letöltés
Oszd meg a filmet Facebook-on!
Lovagregény (A Knight's Tale) 2001
Leírás:


Lovagregény (A Knight's Tale) 2001

Dvdrip, xvid, szinkronizált
színes, magyarul beszélő, amerikai kalandfilm, 132 perc, 2001

rendező: Brian Helgeland
forgatókönyvíró: Brian Helgeland
operatőr: Richard Greatrex
jelmeztervező: Caroline Harris
zene: Carter Burwell
producer: Todd Black, Brian Helgeland, Tim Van Rellim
látványtervező: Tony Burrough
vágó: Kevin Stitt
művészeti vezető: John Hill

szereplő(k):
Heath Ledger (William Thatcher/Sir Ulrich von Lichtenstein)
Rufus Sewell (Adhemar gróf)
Shannyn Sossamon (Lady Jocelyn)
Paul Bettany (Geoffrey)
Mark Addy (Roland)
Bérénice Bejo (Christiana)
Alan Tudyk (Wat)
James Purefoy (Sir Thomas Colville)
Laura Fraser (Kate)

William Thatcher (Heath Ledger) nemcsak kiváló szájhős, hanem első osztályú szédítő is, akinek csupán egy rang hiányzik a teljes sikerhez. Mivel az nem terem minden bokorban, hát hazudik egyet magának, amikor Sir Ector a lovagi tornán jobblétre szenderül. Felveszi a vértezetét, és néhai ura nevében megnyeri a díjat. Hamarosan víg cimboráival egyik tornáról járnak a másikra, és William igazi sztár lesz. Csakhogy a szép Jocelyn teljesen elcsavarja a fejét, mellyel egy veszélyes és féltékeny ellenséget szerez magának. Ráadásul Adhemar gróf (Rufus Sewell), a fekete lovag rájön, hogy egy csaló orránál fogva vezeti a sportbarát nemességet.

Code
General
Complete name : Lovagregeny_2001.avi
Format : AVI
Format/Info : Audio Video Interleave
File size : 1.36 GiB
Duration : 2h 17mn
Overall bit rate : 1 417 Kbps
Writing application : MEncoder 1.0rc1-4.1.1
Writing library : MPlayer

Video
ID : 0
Format : MPEG-4 Visual
Format profile : Simple@L1
Format settings, BVOP : No
Format settings, QPel : No
Format settings, GMC : No warppoints
Format settings, Matrix : Default (H.263)
Codec ID : XVID
Codec ID/Hint : XviD
Duration : 2h 17mn
Bit rate : 1 220 Kbps
Width : 672 pixels
Height : 288 pixels
Display aspect ratio : 2.35:1
Frame rate : 25.000 fps
Color space : YUV
Chroma subsampling : 4:2:0
Bit depth : 8 bits
Scan type : Progressive
Compression mode : Lossy
Bits/(Pixel*Frame) : 0.252
Stream size : 1.17 GiB (86%)
Writing library : Lavc51.21.0

Audio
ID : 1
Format : AC-3
Format/Info : Audio Coding 3
Format profile : Dolby Digital
Mode extension : CM (complete main)
Codec ID : 2000
Duration : 2h 17mn
Bit rate mode : Constant
Bit rate : 192 Kbps
Channel(s) : 2 channels
Channel positions : Front: L R
Sampling rate : 48.0 KHz
Bit depth : 16 bits
Compression mode : Lossy
Stream size : 189 MiB (14%)
Alignment : Split accross interleaves
Interleave, duration : 500 ms (12.50 video frames)
Interleave, preload duration : 500 ms


Code

http://data.hu/get/4893536/1140.part1.rar
http://data.hu/get/4893537/1140.part2.rar
http://data.hu/get/4893538/1140.part3.rar
http://data.hu/get/4893539/1140.part4.rar
http://data.hu/get/4893541/1140.part5.rar
http://data.hu/get/4893542/1140.part6.rar
http://data.hu/get/4893543/1140.part7.rar
http://data.hu/get/4893544/1140.part8.rar
Értékelés:
Kategoria:Kaland
Feltöltve:2012.Már.25
Feltöltötte:Amadeusz
Nézetség:1518
Tag-ek:HunDub, DVDRip, data, kaland
Helyezés:0.0/0
A hozzászólások olvasásához, írásához be kell jelentkezned!
[ Regisztráció | Belépés ]