Az igazság fáj (Get Carter) 2000 - Krimi - Filmek - New Torrents
Online Filmek, online film letöltés, ingyen filmek , webes filmnézés , online letöltés
Oszd meg a filmet Facebook-on!
Az igazság fáj (Get Carter) 2000
Leírás:


Az igazság fáj (Get Carter) 2000

Dvdrip, xvid, szinkronizált
színes, magyarul beszélő, amerikai krimi, 102 perc, 2000

rendező: Stephen T. Kay
forgatókönyvíró: David McKenna
zeneszerző: Tyler Bates, Paul Oakenfold
operatőr: Mauro Fiore
díszlettervező: Helen Jarvis
jelmeztervező: Julie Weiss
vágó: Gerald B. Greenberg

szereplő(k):
Sylvester Stallone (Jack Carter)
Michael Caine (Cliff Brumby)
Rachael Leigh Cook (Doreen Carter)
Mickey Rourke (Cyrus Paice)
Miranda Richardson (Gloria Carter)
Rhona Mitra (Geraldine)
John C. McGinley (Con McCarty)
Gretchen Mol (Eddie)
Alan Cumming (Jeremy Kinnear)

A Las Vegasban tevékenykedő Jack Carter (Sylvester Stallone) egész életében másoknak dolgozott: adósságot hajtott be, büntetést foganatosított. Egyedül volt és mindig távolságtartó volt mindenkivel. ám amikor értesül róla, hogy bátyja, Ritchie meghalt egy balesetben, hazatér. A családhoz, melyet elhagyott, az adósságokhoz, melyeket soha nem fizetett ki, és egy rejtélyhez, ami a lelke mélyéig hatol. Azt mondják neki, hogy Ritchie egy részeg autóssal ütközött össze. Jack kérdezgeti bátyja családtagjait, ismerőseit, s végül rájön, hogy Ritchie-t valószínűleg meggyilkolták. Jack elmegy annak a klubnak a tulajdonosához, melyet bátyja igazgatott. Cliff Brumby (Michael Caine) nem hiszi, hogy bárkinek oka lett volna megölni Ritchie-t, de elmondja neki, hogy a férfinak viszonya volt egy helyi bártündérrel, aki Cyrus Paice pornófilm-producer (Mickey Rourke) barátnője.

Code
General
Complete name : Get_Carter_2000..avi
Format : AVI
Format/Info : Audio Video Interleave
File size : 700 MiB
Duration : 1h 37mn
Overall bit rate mode : Variable
Overall bit rate : 1 003 Kbps
Writing application : VirtualDubMod 1.5.4.1 (build 2178/release)
Writing library : VirtualDubMod build 2178/release

Video
ID : 0
Format : MPEG-4 Visual
Format profile : Advanced Simple@L5
Format settings, BVOP : 1
Format settings, QPel : No
Format settings, GMC : No warppoints
Format settings, Matrix : Custom
Codec ID : XVID
Codec ID/Hint : XviD
Duration : 1h 37mn
Bit rate : 874 Kbps
Width : 656 pixels
Height : 288 pixels
Display aspect ratio : 2.25:1
Frame rate : 25.000 fps
Color space : YUV
Chroma subsampling : 4:2:0
Bit depth : 8 bits
Scan type : Progressive
Compression mode : Lossy
Bits/(Pixel*Frame) : 0.185
Stream size : 610 MiB (87%)
Writing library : XviD 1.2.0SMP (UTC 2006-01-08)

Audio
ID : 1
Format : MPEG Audio
Format version : Version 1
Format profile : Layer 3
Mode : Joint stereo
Mode extension : MS Stereo
Codec ID : 55
Codec ID/Hint : MP3
Duration : 1h 37mn
Bit rate mode : Variable
Bit rate : 116 Kbps
Nominal bit rate : 128 Kbps
Channel(s) : 2 channels
Sampling rate : 48.0 KHz
Compression mode : Lossy
Stream size : 80.9 MiB (12%)
Alignment : Aligned on interleaves
Interleave, duration : 24 ms (0.60 video frame)
Interleave, preload duration : 536 ms
Writing library : LAME3.97b
Encoding settings : -m j -V 4 -q 2 -lowpass 17 --abr 128


Code

http://data.hu/get/4898498/2362.part1.rar
http://data.hu/get/4898499/2362.part2.rar
http://data.hu/get/4898500/2362.part3.rar
http://data.hu/get/4898501/2362.part4.rar
http://data.hu/get/4898502/2362.part5.rar
http://data.hu/get/4898504/2362.part6.rar
http://data.hu/get/4898505/2362.part7.rar
Értékelés:
Kategoria:Krimi
Feltöltve:2012.Már.25
Feltöltötte:Amadeusz
Nézetség:1368
Tag-ek:Krimi, HunDub, DVDRip, data
Helyezés:0.0/0
A hozzászólások olvasásához, írásához be kell jelentkezned!
[ Regisztráció | Belépés ]