Idegen invázió(Iron Invader)2011.DVDRIP.XVID.HUNDUB - Sci- fi és fantasy - Filmek - New Torrents
Online Filmek, online film letöltés, ingyen filmek , webes filmnézés , online letöltés
Oszd meg a filmet Facebook-on!
Idegen invázió(Iron Invader)2011.DVDRIP.XVID.HUNDUB
Leírás:
Idegen invázió(Iron Invader)2011 - DVDRIP XVID HUNDUB 
színes, magyarul beszélő, kanadai sci-fi, 86 perc, 2011


Egy lezuhant műholdon érkezett baktérium átveszi az irányítást és óriási fémszobor fölött, ami az emberek nyomába ered...


IMDB
Code

http://www.imdb.com/title/tt1651894/ 


TRAILER 
[xml]http://www.youtube.com/watch?v=k8dbH3Gb6qo[/xml] 

rendező: Paul Ziller
forgatókönyvíró: Paul Ziller, Gary Hawes 
zeneszerző: Christopher Nickel 
operatőr: Anthony C. Metchie 
producer: John Prince 
vágó: Christopher A. Smith 

szereplő(k):
Kavan Smith (Jake) 
Colby Johannson (Ethan) 
Nicole de Boer (Amanda) 
Merritt Patterson (Claire) 
Jesse Moss (Max) 

Code
AUDIO-VIDEO  

Format : AVI 
Format/Info : Audio Video Interleave 
File size : 1.07 GiB 
Duration : 1h 26mn 
Overall bit rate : 1 771 Kbps 
Writing application : FairUse Wizard 
Writing library : The best and REALLY easy backup tool 

Video 
Format : MPEG-4 Visual 
Format profile : Streaming Video@L1 
Format settings, BVOP : Yes 
Format settings, QPel : No 
Format settings, GMC : No warppoints 
Format settings, Matrix : Default 
Muxing mode : Packed bitstream 
Codec ID : XVID 
Codec ID/Hint : XviD 
Duration : 1h 26mn 
Bit rate : 1 377 Kbps 
Width : 688 pixels 
Height : 384 pixels 
Display aspect ratio : 16/9 
Frame rate : 25.000 fps 
Resolution : 24 bits 
Colorimetry : 4:2:0 
Scan type : Progressive 
Bits/(Pixel*Frame) : 0.209 
Stream size : 854 MiB (78%) 
Writing library : XviD 1.2.0.dev47 (UTC 2006-11-01) 

Audio 
Format : AC-3 
Format/Info : Audio Coding 3 
Codec ID : 2000 
Duration : 1h 26mn 
Bit rate mode : Constant 
Bit rate : 384 Kbps 
Channel(s) : 6 channels 
Channel positions : Front: L C R, Surround: L R, LFE 
Sampling rate : 48.0 KHz 
Stream size : 238 MiB (22%) 
Alignment : Split accross interleaves 
Interleave, duration : 40 ms (1.00 video frame) 
Interleave, preload duration : 500 ms


SHAREFILES4U 
Online és letölthető 
Code

http://sharefiles4u.com/8tezovnh10cx 

FILEVELOCITY 
Code

http://filevelocity.com/vdgxfziwyvul/id_g_ninvaz_pa_t___a_ 
http://filevelocity.com/sqkuui2g0nhw/idegeninvaz.part2.rar 

UPLOADED.TO 
Code

http://ul.to/mcbymc75 
http://ul.to/686zbagl 

Akár párhuzamosan is szedhető.
Értékelés:
Kategoria:Sci- fi és fantasy
Feltöltve:2012.Feb.08
Feltöltötte:Amadeusz
Nézetség:218
Tag-ek:Sci-Fi, uploaded.to, Sharefiles4u, 1.07GB, Filevelocit
Helyezés:0.0/0
A hozzászólások olvasásához, írásához be kell jelentkezned!
[ Regisztráció | Belépés ]