A szenvedély útvesztői (Zaklatás meglepetésekkel) (Crimes of Passion) 2005 DVDRIP hun xvid - Thriller - Filmek - New Torrents
Online Filmek, online film letöltés, ingyen filmek , webes filmnézés , online letöltés
Oszd meg a filmet Facebook-on!
A szenvedély útvesztői (Zaklatás meglepetésekkel) (Crimes of Passion) 2005 DVDRIP hun xvid
Leírás:

A szenvedély útvesztői (Zaklatás meglepetésekkel) 
(Crimes of Passion) 
színes, magyarul beszélő, amerikai-kanadai thriller, 86 perc, 2005 

Tartalom:Jerry egy vállalat jómódú alkalmazottja. Kinevezésére vár, mikor színre lép Rebecca, aki szintén az ő állására feni a fogát. Egy mámoros éjszaka után a nő zaklatással vádolja a férfit, akit emiatt a cég elbocsátana, ám bizonyítékok hiányában inkább közös megegyezésre jutnak és 10 milliót fizetnek a férfinek, hogy elhagyja a céget. Mígnem kiderül, hogy Rebecca és Jerry közösen tervezték el ezt a csalást a vállalat ellen. és valaki megzsarolja őket, hogy a rendőrségre megy, ha nem fizetnek neki a bőséges juttatásból. A páros azonban ezt természetesen nem akarja. 

Film adatlap: 
rendező: Richard Roy 
forgatókönyvíró: Brad Mirman 
zeneszerző: James Gelfand 
operatőr: Daniel Vincelette 
jelmeztervező: Nicole Pelletier 
producer: Jean Bureau, Josée Mauffette 
executive producer: Jean Bureau 
vágó: Yves Langlois 

szereplő(k): 
Jonathan Higgins (Jerry Dennings) 
Dina Meyer (Rebecca Walker) 
John H. Brennan (Schaffer) 
Amy Sloan (Shannon Dennings) 
Vlasta Vrana (Malcolm McBradden) 
Cas Anvar (Detektív) 
John MacLaren (Peter Wilder) 

Technikai adatok: 

Code
Video #0 
ID : 0 
Format : MPEG-4 Visual 
Format settings, BVOP : No 
Format settings, QPel : No 
Format settings, GMC : No warppoints 
Format settings, Matrix : Default (H.263) 
Codec ID : DX50 
Codec ID/Hint : DivX 5 
Duration : 1h 25mn 
Bit rate : 1 006 Kbps 
Width : 720 pixels 
Height : 400 pixels 
Display aspect ratio : 16:9 
Frame rate : 25.000 fps 
Resolution : 24 bits 
Colorimetry : 4:2:0 
Scan type : Progressive 
Bits/(Pixel*Frame) : 0.140 
Stream size : 617 MiB (72%) 
Writing library : DivX 5.2.1 Alpha (UTC 2004-09-08) 
Audio #1 
ID : 1 
Format : AC-3 
Format/Info : Audio Coding 3 
Codec ID : 2000 
Duration : 1h 25mn 
Bit rate mode : Constant 
Bit rate : 192 Kbps 
Channel(s) : 2 channels 
Channel positions : L R 
Sampling rate : 48.0 KHz 
Stream size : 118 MiB (14%) 
Alignment : Split accross interleaves 
Interleave, duration : 40 ms (1.00 video frame) 
Interleave, preload duration : 500 ms 
Audio #2 
ID : 2 
Format : AC-3 
Format/Info : Audio Coding 3 
Codec ID : 2000 
Duration : 1h 25mn 
Bit rate mode : Constant 
Bit rate : 192 Kbps 
Channel(s) : 2 channels 
Channel positions : L R 
Sampling rate : 48.0 KHz 
Stream size : 118 MiB (14%) 
Alignment : Split accross interleaves 
Interleave, duration : 40 ms (1.00 video frame) 
Interleave, preload duration : 500 ms


Code
http://filevelocity.com/g11epiba1ye0/A_szenvedely_utvesztoi.avi
Értékelés:
Kategoria:Thriller
Feltöltve:2012.Feb.08
Feltöltötte:Amadeusz
Nézetség:176
Tag-ek:Thriller, filevelocity
Helyezés:0.0/0
A hozzászólások olvasásához, írásához be kell jelentkezned!
[ Regisztráció | Belépés ]