A tetovált lány (The Girl with the Dragon Tattoo)2011.DVDSCR.XviD.HUNSUB - Thriller - Filmek - New Torrents
Online Filmek, online film letöltés, ingyen filmek , webes filmnézés , online letöltés
Oszd meg a filmet Facebook-on!
A tetovált lány (The Girl with the Dragon Tattoo)2011.DVDSCR.XviD.HUNSUB
Leírás:
A tetovált lány (The Girl with the Dragon Tattoo) 2011 - DVDSCR XVID HUNSUB 

színes, égetett feliratos, amerikai-svéd-angol-német thriller, 158 perc, 2011


A titkok soká élnek. Negyven évvel ezelött egy családi ünnepség közben eltünt a nagyhatalmú Vanger-klán egyik tagja, Harriet. Az idös milliárdos meg van róla gyödve, hogy unokahúgát meggyilkolták, ezért felbérel egy állás nélkül maradt újságírót, hogy járjon utána az ügynek. A férfi (Daniel Craig) nyomozni kezd, és segítséget is talál egy tehetséges komputerhacker (Rooney Mara) személyében. Közös kutatásuk túl sok érdeket sért és rég eltemetett titkot fenyeget, és újabb gyilkosságra derít fényt. 


IMDB
Code

http://www.imdb.com/title/tt1568346/ 


TRAILER
[xml]http://www.youtube.com/watch?v=WVLvMg62RPA[/xml] 

Rendezö:
David Fincher 
író:
Stieg Larsson 
Forgatókönyvíró: 
Steven Zaillian 
Zeneszerzö: 
Trent Reznor, Atticus Ross 

Szereplök:
Rooney Mara (Lisbeth Salander) 
Daniel Craig (Mikael Blomkvist) 
Stellan Skarsgard (Martin Vanger) 
Robin Wright (Erika Berger) 
Embeth Davidtz (Annika Blomkvist) 
Christopher Plummer (Henrik Vanger) 
Joel Kinnaman (Christer Malm) 
Joely Richardson (Anita Vanger) 
Moa Garpendal (Harriet) 

AUDIO-VIDEO

Format : AVI 
Format/Info : Audio Video Interleave 
File size : 898 MiB 
Duration : 2h 38mn 
Overall bit rate : 794 Kbps 
Writing application : Lavf51.12.1 

Video 
Format : xvid 
Codec ID : xvid 
Duration : 2h 38mn 
Bit rate : 653 Kbps 
Width : 720 pixels 
Height : 304 pixels 
Display aspect ratio : 2.35 
Frame rate : 29.970 fps 
Resolution : 24 bits 
Bits/(Pixel*Frame) : 0.100 
Stream size : 738 MiB (82%) 

Audio 
Format : MPEG Audio 
Format version : Version 1 
Format profile : Layer 3 
Codec ID : 55 
Codec ID/Hint : MP3 
Duration : 2h 38mn 
Bit rate mode : Constant 
Bit rate : 128 Kbps 
Channel(s) : 2 channels 
Sampling rate : 44.1 KHz 
Resolution : 16 bits 
Stream size : 145 MiB (16%) 
Alignment : Aligned on interleaves 
Interleave, duration : 26 ms (0.78 video frame) 
Writing library : LAME3.97 

SHAREFILES4U 
Online és letölthető 
Code

http://sharefiles4u.com/4y7j6w43f12l 

UPLOADED.TO 
Rar password:kaliber762 
Code

http://ul.to/px2g4ck5 
http://ul.to/7hmzh5yi 

FILEVELOCITY 
Rar password:kaliber762 
Code

http://filevelocity.com/axpckndwon7a/_Girl.Tatto.HunSub.part1.rar 
http://filevelocity.com/09u6m5u5wlni/_Girl.Tatto.HunSub.part2.rar 
Értékelés:
Kategoria:Thriller
Feltöltve:2012.Feb.08
Feltöltötte:Amadeusz
Nézetség:105
Tag-ek:Thriller, filevelocity
Helyezés:0.0/0
A hozzászólások olvasásához, írásához be kell jelentkezned!
[ Regisztráció | Belépés ]