Éjfélkor Párizsban (Midnight in Paris) 2011.BDRip.XVID.HUNSUB.AC3.HQ.Hive-CM8 - Vígjáték - Filmek - New Torrents
Online Filmek, online film letöltés, ingyen filmek , webes filmnézés , online letöltés
Oszd meg a filmet Facebook-on!
Éjfélkor Párizsban (Midnight in Paris) 2011.BDRip.XVID.HUNSUB.AC3.HQ.Hive-CM8
Leírás:


éjfélkor Párizsban (Midnight in Paris) 2011.BDRip.XVID.HUNSUB.AC3.HQ.Hive-CM8

színes, magyar feliratos, amerikai vígjáték, 2011
Tartalom:
Gil és Inez jegyesek, akik üzleti okokból Párizsba látogatnak. Időközben kiderül, hogy a pár nem egészen egymáshoz való. Gil esetleg Párizsban szeretne élni, es komoly íróvá válni, míg Ineznél ez szóba sem jöhet. Gil szeret esőben sétálni, míg Inez nem. A történetben a fordulatot az hozza, hogy Gil felfedezi, hogy pontban éjfélkor Párizs egy bizonyos pontján egy fiákerbe szállva időutazásban vehet reszt, amely visszaröpíti az általa kedvelt 1920-as évekbe.
Rendező: Woody Allen
Szereplők: Owen Wilson, Rachel McAdams, Kurt Fuller, Mimi Kennedy, Michael Sheen

Technikai Adatok:
Code
kép:
Bit rate : 1 796 Kbps
Width : 720 pixels
Height : 384 pixels
Display aspect ratio : 1.850
Frame rate : 23.976 fps
Color space : YUV
Chroma subsampling : 4:2:0
Bit depth : 8 bits
Scan type : Progressive
Compression mode : Lossy
Bits/(Pixel*Frame) : 0.271
Stream size : 1.18 GiB (82%)
hang:
Bit rate : 384 Kbps
Channel(s) : 2 channels
Channel positions : Front: L R
Sampling rate : 48.0 KHz
Bit depth : 16 bits
Compression mode : Lossy
Stream size : 258 MiB (18%)

IMDB Link..: http://link.tutimozi.com/imdb-1605783


Letöltés:
Code
http://sharefiles4u.com/rqf0gl00gjcq

vagy:

http://fiberupload.com/7e9q3gqvsc5d/mdnghtnprs-swz.hu.part1.rar.html
http://fiberupload.com/9lorph212w5p/mdnghtnprs-swz.hu.part2.rar.html

vagy:

http://www.shragle.com/files/62f95e35/mdnghtnprs-swz.hu.part1.rar
http://www.shragle.com/files/193006a0/mdnghtnprs-swz.hu.part2.rar


Jelszó: nono
Értékelés:
Kategoria:Vígjáték
Feltöltve:2012.Már.20
Feltöltötte:Amadeusz
Nézetség:1070
Tag-ek:fiberupload, shragle, vígjáték, shalefiles4u
Helyezés:0.0/0
A hozzászólások olvasásához, írásához be kell jelentkezned!
[ Regisztráció | Belépés ]