Légypapír(Flypaper)2011.BRRip.XviD.HunSub - Vígjáték - Filmek - New Torrents
Online Filmek, online film letöltés, ingyen filmek , webes filmnézés , online letöltés
Oszd meg a filmet Facebook-on!
Légypapír(Flypaper)2011.BRRip.XviD.HunSub
Leírás:
Légypapír(Flypaper)2011.BRRip.XviD.HunSub 

Színes, égetett feliratos amerikai akcióvígjáték, 87 perc



A légypapír, amely egy bankrablás idején játszódik nem szűkölködik erőszakban és romantikában, humorban és robbantásokban sem. Tripp Kennedy (Patrick Dempsey) záróra körül lép be a bankba, éppen akkor amikor két különböző banda egyidőben akar rabolni.Egy tűzpárbaj idején Tripp megpróbálja megóvni Kaitlin-t (Ashley Judd) aki pénztáros és aki megtetszett Tripp-nek.
Amikor a bank biztonsági rendszere beindul a zárás időpontjában, mindenki fogollyá válik az épületben, minek következtében a cselekmény egy komikus macska-egér játékká alakul át.









IMDB
Code

http://www.imdb.com/title/tt1541160/


TRAILER


Rendezte:
Rob Minkoff

írta:
Jon Lucas
Scott Moore

Szereplők:
Ashley Judd.............Kaitlin
Patrick Dempsey ........Tripp
Octavia Spencer.........Madge Wiggins
Jeffrey Tambor..........Gordon Blythe
Mekhi Phifer............Darrien
Tim Blake Nelson........Peanut Butter
Beau Brasseaux..........E.M.T. (as Beau Brasso)
Pruitt Taylor Vince.....Jelly
Monica Acosta...........Bank Customer
John Ventimiglia........Weinstein
Kasey Emas..............Bank customer
Matt Ryan...............Gates
Adrian Martinez.........Mr. Clean

Code
Audio-Video

Format : AVI
Format/Info : Audio Video Interleave
File size : 845 MiB
Duration : 1h 27mn
Overall bit rate : 1 353 Kbps
Writing library : VirtualDub build 32842/release

Video
Format : MPEG-4 Visual
Format profile : Simple Streaming Video@L1
Format settings, BVOP : Yes
Format settings, QPel : No
Format settings, GMC : No warppoints
Format settings, Matrix : Default
Codec ID : XVID
Codec ID/Hint : XviD
Duration : 1h 27mn
Bit rate : 1 216 Kbps
Width : 672 pixels
Height : 288 pixels
Display aspect ratio : 2.35
Frame rate : 23.976 fps
Resolution : 24 bits
Colorimetry : 4:2:0
Scan type : Progressive
Bits/(Pixel*Frame) : 0.262
Stream size : 759 MiB (90%)
Writing library : Lavc52.18.0

Audio
Format : MPEG Audio
Format version : Version 1
Format profile : Layer 3
Codec ID : 55
Codec ID/Hint : MP3
Duration : 1h 27mn
Bit rate mode : Constant
Bit rate : 128 Kbps
Channel(s) : 2 channels
Sampling rate : 48.0 KHz
Resolution : 16 bits
Stream size : 79.9 MiB (9%)
Alignment : Split accross interleaves
Interleave, duration : 42 ms (1.00 video frame)
Interleave, preload duration : 500 ms


UPLOADED.TO
Rar password:kaliber762

Code

http://ul.to/svp33t6s
http://ul.to/frwpxqvq

EXTABIT
Rar password:kaliber762

Code

http://extabit.com/file/28xi6q9exhf4r/
http://extabit.com/file/28xi6q9exhf57/

Párhuzamosan is tölthető.
Értékelés:
Kategoria:Vígjáték
Feltöltve:2012.Feb.12
Feltöltötte:Amadeusz
Nézetség:125
Tag-ek:845MB, uploaded.to, feliratos, Extabit, vígjáték
Helyezés:0.0/0
A hozzászólások olvasásához, írásához be kell jelentkezned!
[ Regisztráció | Belépés ]